Отряд Самоубийц: Адская Расплата / Suicide Squad: Hell to Pay
«When the world needs the best, they call on the worst»
-Страна: США.
Жанр: Мультфильм, фантастика, боевик, приключения.
Продолжительность: 01:26:02
Год выпуска: 2018.
Перевод: Любительский (многоголосый закадровый) ZM-Show;
Любительский (многоголосый закадровый) Saint-Sound TV & BzekE;
Любительский (многоголосый закадровый) Flarrow Films.
Русские субтитры: Есть.
Режиссёр: Сэм Лью / Sam Liu.
Роли озвучивали: Кристиан Слэйтер, Си Томас Хауэлл, Тара Стронг, Ванесса Уильямс, Даня Рамирес, Билли Браун, Лиам МакИнтайр, Кристин Бауэр, Мэттью Мерсер, Гидеон Эмери.--Описание: Оперативная Группа X нацелена найти мощный мистический предмет, который им предстоит украсть рискуя своими жизнями.--

Роли озвучивали :

Saint Sound

Закадровые голоса: Алла Алёхина, Алеся Зеленко, Алла Гришина, Игорь Хрусталёв, Андрей Стакионис, Алексей Щегорский, Александр Луговский, Слава Бланк, Евгений Леонов, Константин Кураев, Макс Фривинг и Никита Аитов.
Релиз: -Благодарности:
Спасибо Saint Sound за любезно предоставленные чистые голоса;
Спасибо UGN SUBZ Translators за русские субтитры.-Качество: UHD BDRemux 2160p
Формат: MKV
Видео кодек: AVC
Аудио кодек: DTS MA
Видео: MPEG-H HEVC Video / 3840x2160 / 51.2 Mb/s / 23.976 fps / 16:9 / Main 10 Profile 5.1 High / 4:2:0 / 10 bits / HDR / BT.2020 /
Аудио 1: DTS-HD Master Audio / 5.1 / 48 kHz / 2 219 kbps / 16-bit (DTS Core: 5.1 / 48 kHz / 1509 kbps / 16-bit) ZM-Show
Аудио 2: DTS-HD Master Audio / 5.1 / 48 kHz / 2 255 / 16-bit (DTS Core: 5.1 / 48 kHz / 1509 kbps / 16-bit) Saint Sound
Аудио 3: DTS-HD Master Audio / 5.1 / 48 kHz / 2 238 / 16-bit (DTS Core: 5.1 / 48 kHz / 1509 kbps / 16-bit) Flarrow Films
Аудио 4: DTS-HD Master Audio / 5.1 / 48 kHz / 2 467 kbps / 24-bit (DTS Core: 5.1 / 48 kHz / 1509 kbps / 24-bit) English
Субтитры: Русские (Форсированные), Русские (Перевод группы UGN SUBZ Translators), English.
Навигация по главам: 9 глав (не именных)

MInfo

General
Unique ID : 89996195203739881330580864250005273171 (0x43B4A3003CE76803D7BB29A89AD1BA53)
Complete name : D:\Torrents\Suicide Squad Hell to Pay (2018) UHDRemux 2160p Bobropandavar.mkv
Format : Matroska
Format version : Version 4 / Version 2
File size : 36.3 GiB
Duration : 1 h 26 min
Overall bit rate : 60.4 Mb/s
Encoded date : UTC 2018-09-15 08:54:49
Writing application : mkvmerge v25.0.0 ('Prog Noir') 64-bit
Writing library : libebml v1.3.6 + libmatroska v1.4.9
Cover : Yes
Attachments : cover.jpg
Video
ID : 1
Format : HEVC
Format/Info : High Efficiency Video Coding
Commercial name : HDR10
Format profile : Main 10@L5.1@High
Codec ID : V_MPEGH/ISO/HEVC
Duration : 1 h 26 min
Bit rate : 51.2 Mb/s
Width : 3 840 pixels
Height : 2 160 pixels
Display aspect ratio : 16:9
Frame rate mode : Constant
Frame rate : 23.976 (24000/1001) FPS
Color space : YUV
Chroma subsampling : 4:2:0 (Type 2)
Bit depth : 10 bits
Bits/(Pixel*Frame) : 0.257
Stream size : 30.8 GiB (85%)
Writing library : ATEME Titan File 3.8.13 (4.8.13.0)
Language : English
Default : Yes
Forced : No
Color range : Limited
Color primaries : BT.2020
Transfer characteristics : PQ
Matrix coefficients : BT.2020 non-constant
Mastering display color pri : Display P3
Mastering display luminance : min: 0.0050 cd/m2, max: 4000 cd/m2
Maximum Content Light Level : 1051 cd/m2
Maximum Frame-Average Light : 463 cd/m2
Audio #1
ID : 2
Format : DTS
Format/Info : Digital Theater Systems
Format profile : MA / Core
Codec ID : A_DTS
Duration : 1 h 26 min
Bit rate mode : Variable / Constant
Bit rate : 2 219 kb/s / 1 509 kb/s
Channel(s) : 6 channels
Channel positions : Front: L C R, Side: L R, LFE
Sampling rate : 48.0 kHz
Frame rate : 93.750 FPS (512 SPF)
Bit depth : 16 bits
Compression mode : Lossless / Lossy
Stream size : 1.33 GiB (4%)
Title : ZM-Show
Language : Russian
Default : Yes
Forced : No
Audio #2
ID : 3
Format : DTS
Format/Info : Digital Theater Systems
Format profile : MA / Core
Codec ID : A_DTS
Duration : 1 h 26 min
Bit rate mode : Variable / Constant
Bit rate : 2 255 kb/s / 1 509 kb/s
Channel(s) : 6 channels
Channel positions : Front: L C R, Side: L R, LFE
Sampling rate : 48.0 kHz
Frame rate : 93.750 FPS (512 SPF)
Bit depth : 16 bits
Compression mode : Lossless / Lossy
Stream size : 1.36 GiB (4%)
Title : Saint Sound TV
Language : Russian
Default : No
Forced : No
Audio #3
ID : 4
Format : DTS
Format/Info : Digital Theater Systems
Format profile : MA / Core
Codec ID : A_DTS
Duration : 1 h 26 min
Bit rate mode : Variable / Constant
Bit rate : 2 238 kb/s / 1 509 kb/s
Channel(s) : 6 channels
Channel positions : Front: L C R, Side: L R, LFE
Sampling rate : 48.0 kHz
Frame rate : 93.750 FPS (512 SPF)
Bit depth : 16 bits
Compression mode : Lossless / Lossy
Stream size : 1.35 GiB (4%)
Title : Flarrow Films
Language : Russian
Default : No
Forced : No
Audio #4
ID : 5
Format : DTS
Format/Info : Digital Theater Systems
Format profile : MA / Core
Codec ID : A_DTS
Duration : 1 h 26 min
Bit rate mode : Variable / Constant
Bit rate : 2 467 kb/s / 1 509 kb/s
Channel(s) : 6 channels
Channel positions : Front: L C R, Side: L R, LFE
Sampling rate : 48.0 kHz
Frame rate : 93.750 FPS (512 SPF)
Bit depth : 24 bits
Compression mode : Lossless / Lossy
Stream size : 1.48 GiB (4%)
Title : Original
Language : English
Default : No
Forced : No
Text #1
ID : 6
Format : UTF-8
Codec ID : S_TEXT/UTF8
Codec ID/Info : UTF-8 Plain Text
Duration : 1 h 19 min
Bit rate : 0 b/s
Count of elements : 13
Stream size : 478 Bytes (0%)
Title : Russian Forced
Language : Russian
Default : No
Forced : No
Text #2
ID : 7
Format : UTF-8
Codec ID : S_TEXT/UTF8
Codec ID/Info : UTF-8 Plain Text
Duration : 1 h 22 min
Bit rate : 84 b/s
Count of elements : 880
Stream size : 51.1 KiB (0%)
Title : Russian
Language : Russian
Default : No
Forced : No
Text #3
ID : 8
Format : UTF-8
Codec ID : S_TEXT/UTF8
Codec ID/Info : UTF-8 Plain Text
Duration : 1 h 25 min
Bit rate : 42 b/s
Count of elements : 852
Stream size : 26.7 KiB (0%)
Title : English
Language : English
Default : No
Forced : No
Menu
00:00:00.000 : en:Chapter 1
00:10:21.621 : en:Chapter 2
00:19:57.321 : en:Chapter 3
00:35:58.823 : en:Chapter 4
00:48:13.473 : en:Chapter 5
00:55:38.293 : en:Chapter 6
01:01:51.874 : en:Chapter 7
01:15:39.117 : en:Chapter 8
01:22:49.047 : en:Chapter 9

Скриншоты


-МОИ РАЗДАЧИ-НЕ ЗАБЫВАЕМ БЛАГОДАРИТЬ НАЖАТИЕМ КНОПОЧКИ "СПАСИБО"