За пределами Долины кукол / Изнанка Долины кукол / Beyond the Valley of the Dolls / Criterion Collection#836«The closer they get to the top - the nearer they get to the bottom» Страна:СШАСтудия:20th Century Fox Film Corporation.Жанр:Драма, Комедия, МузыкаГод выпуска:1970
Продолжительность:01:49:14Производство:The Criterion Collection #836Перевод:Авторский(одноголосый закадровый) А.АлексеевСубтитры:Английские
Премьера (мир):17.06.1970
Режиссер:Расс Мейер / Russ MeyerВ ролях:Долли Рид, Синтия Майерс, Марсия МакБрум, Джон Лазар, Майкл Блоджет, Дэвид Гуриан, Эди Уильямс, Эрика Гэвин, Филлис Дэвис, Харрисон ПейджОписание:Три сладкоголосые певички, устав от пуритански настроенной публики провинциальной Америки, отправляются во все тяжкие — в Голливуд, или иначе «Долина кукол».
Доп. информация:Исходник предоставил kinoman88.Огромное СпасибоВсем, без чьей помощи этот релиз не состоялся бы!Сценарий:Роджер Эберт, Расс МайерПродюсер:Расс Майер, Ред Хершон, Ив МейерОператор:Фред Дж. КонекэмпКомпозитор:Стью ФиллипсХудожник:Артур Лонерган, Джек Мартин Смит, Дэвид ХэйесМонтаж:Дэнн Кан, Дик Уормелл

Рецензия

Софт

PgcDemux 1.2.0.5 -> разделение компонентов диска на файлы.
BeHappy, BeLight - AC3 -> Wav.Sound Forge pro 10 -> синхронизация звукаMuxMan DVD authoring Professional -> мультиплексирование и авторинг.
DVDRemake Pro 3.6.4 -> реавторинг DVD.
DVD Shrink 3.2 -> Сэмпл.--

Бонусы: Диск 1,2. Без перевода.

--Audio commentary from 2003 featuring screenwriter Roger Ebert
--Audio commentary from 2006 featuring actors Dolly Read, Cynthia Myers, Harrison Page, John LaZar, and Erica Gavin
--New interview with filmmaker John Waters
--Episode from 1988 of The Incredibly Strange Film Show on director Russ Meyer
--Q&A about the film from 1992 featuring Meyer, Ebert, LaZar, and Read; and actors David Gurian, Charles Napier, Michael Blodgett, and Edy Williams, with host Michael Dare
--Interview with cast members from 2005
--Above, Beneath, and Beyond the Valley; Look On Up at the Bottom; The Best of Beyond; Sex, Drugs, Music & Murder; and Casey & Roxanne, five documentaries from 2006 about the making of the film, featuring the cast and crew
--Screen tests
--Trailers
Меню:Английский, анимированное, озвученное.Сэмпл Диск 1: Сэмпл Диск 2: Тип релиза:DVD9 (Custom) + DVD9
Контейнер:DVD-Video
Видео:NTSC 16:9 (720x480) VBR, Auto Letterboxed, 6618 Кбит/сек, 23,976 (24000/1001) кадра/секАудио 1:Русский:AC3, 2 ch, 48.0 KHz, 192 Кбит/сек / Авторский(одноголосый закадровый) А.Алексеев
Аудио 2:Английский:AC3, 1 ch, 48.0 KHz, 192 Кбит/сек / Коментарий Roger Ebert
Аудио 3:Английский:AC3, 1 ch, 48.0 KHz, 192 Кбит/сек / Коментарий Dolly Read, Cynthia Myers, Harrison Page, John LaZar, and Erica GavinАудио 4:Английский:AC3, 1 ch, 48.0 KHz, 384 Кбит/сек / ОригиналФормат субтитров:prerendered (DVD/IDX+SUB)

Dvd Info Диск 1

Title: диск 1
Size: 7.42 Gb ( 7 782 116,00 KBytes ) - DVD-9
Enabled regions: 1, 2, 3, 4, 5, 6, 7, 8
VTS_01 :
Play Length: 00:00:00
Video: NTSC 16:9 (720x480) VBR, Auto Letterboxed
VTS_02 :
Play Length: 01:49:14
Video: NTSC 16:9 (720x480) VBR, Auto Letterboxed
Audio:
Russian (Dolby AC3, 2 ch)
English (Dolby AC3, 1 ch)
English (Dolby AC3, 1 ch)
English (Dolby AC3, 1 ch)
Subtitles:
English
VTS_03 :
Play Length: 00:00:20
Video: NTSC 16:9 (720x480) VBR, Auto Pan&Scan
VTS_04 :
Play Length: 00:29:59
Video: NTSC 16:9 (720x480) VBR, Auto Letterboxed
Audio:
English (Dolby AC3, 2 ch)
VTS_05 :
Play Length: 00:00:12
Video: NTSC 16:9 (720x480) VBR, Auto Letterboxed
Audio:
English (Dolby AC3, 1 ch)
VTS_06 :
Play Length: 00:02:30
Video: NTSC 16:9 (720x480) VBR, Auto Letterboxed
Audio:
English (Dolby AC3, 1 ch)
VTS_07 :
Play Length: 00:02:02
Video: NTSC 4:3 (720x480) VBR
Audio:
English (Dolby AC3, 1 ch)
VTS_08 :
Play Length: 00:02:45
Video: NTSC 4:3 (720x480) VBR
Audio:
English (Dolby AC3, 1 ch)
VTS_09 :
Play Length: 00:01:24
Video: NTSC 4:3 (720x480) VBR
Audio:
English (Dolby AC3, 1 ch)
VTS_10 :
Play Length: 00:00:00
Video: NTSC 16:9 (720x480) VBR, Auto Letterboxed

Dvd Info Диск 2

Title: диск 2
Size: 7.16 Gb ( 7 511 844,00 KBytes ) - DVD-9
Enabled regions: 1, 2, 3, 4, 5, 6, 7, 8
VTS_01 :
Play Length: 00:00:00
Video: NTSC 16:9 (720x480) VBR, Auto Letterboxed
VTS_02 :
Play Length: 00:38:16
Video: NTSC 4:3 (720x480) VBR
Audio:
English (Dolby AC3, 2 ch)
VTS_03 :
Play Length: 00:29:41
Video: NTSC 16:9 (720x480) VBR, Auto Letterboxed
Audio:
English (Dolby AC3, 1 ch)
VTS_04 :
Play Length: 00:12:20
Video: NTSC 16:9 (720x480) VBR, Auto Letterboxed
Audio:
English (Dolby AC3, 2 ch)
VTS_05 :
Play Length: 00:07:33
Video: NTSC 16:9 (720x480) VBR, Auto Letterboxed
Audio:
English (Dolby AC3, 2 ch)
VTS_06 :
Play Length: 00:04:18
Video: NTSC 16:9 (720x480) VBR, Auto Letterboxed
Audio:
English (Dolby AC3, 2 ch)
VTS_07 :
Play Length: 00:08:15
Video: NTSC 16:9 (720x480) VBR, Auto Letterboxed
Audio:
English (Dolby AC3, 2 ch)
VTS_08 :
Play Length: 00:07:28
Video: NTSC 4:3 (720x480) VBR
Audio:
English (Dolby AC3, 1 ch)
VTS_09 :
Play Length: 00:10:57
Video: NTSC 16:9 (720x480) VBR, Auto Letterboxed
Audio:
English (Dolby AC3, 2 ch)
VTS_10 :
Play Length: 00:49:18
Video: NTSC 4:3 (720x480) VBR
Audio:
English (Dolby AC3, 1 ch)
VTS_11 :
Play Length: 00:00:00
Video: NTSC 16:9 (720x480) VBR, Auto Letterboxed

Mediainfo Диск 1

Общее
Полное имя : F:\Beyond the Valley of the Dolls DVD-9_Custom+DVD-9_Criterion#836\диск 1\VIDEO_TS\VTS_02_1.VOB
Формат : MPEG-PS
Размер файла : 1024 Мбайт
Продолжительность : 18 м. 30 с.
Режим общего битрейта : Переменный
Общий поток : 7732 Кбит/сек
Видео
Идентификатор : 224 (0xE0)
Формат : MPEG Video
Версия формата : Version 2
Профиль формата : Main@Main
Настройки формата : CustomMatrix / BVOP
Параметр BVOP формата : Да
Параметр матрицы формата : Выборочная
Параметр GOP формата : Variable
Продолжительность : 18 м. 30 с.
Вид битрейта : Переменный
Битрейт : 6618 Кбит/сек
Максимальный битрейт : 8500 Кбит/сек
Ширина : 720 пикселей
Высота : 480 пикселей
Соотношение сторон : 16:9
Частота кадров : 23,976 (24000/1001) кадра/сек
Цветовое пространство : YUV
Субдискретизация насыщенности : 4:2:0
Битовая глубина : 8 бит
Тип развёртки : Прогрессивная
Порядок развёртки : 2:3 Pulldown
Метод сжатия : С потерями
Бит/(Пиксели*Кадры) : 0.799
Временной код первого кадра : 00:59:46:00
Оригинал временного кода : Group of pictures header
GOP, открыто/закрыто : Открыто
GOP, открыто/закрыто на первом кадре : Закрыто
Размер потока : 876 Мбайт (86%)
Аудио #1
Идентификатор : 189 (0xBD)-128 (0x80)
Формат : AC-3
Формат/Информация : Audio Coding 3
Режим смешивания : DVD-Video
Продолжительность : 18 м. 30 с.
Вид битрейта : Постоянный
Битрейт : 192 Кбит/сек
Каналы : 2 канала
Расположение каналов : Front: L R
Частота : 48,0 КГц
Частота кадров : 31,250 кадров/сек (1536 SPF)
Битовая глубина : 16 бит
Метод сжатия : С потерями
Размер потока : 25,4 Мбайт (2%)
ServiceKind/String : Complete Main
Аудио #2
Идентификатор : 189 (0xBD)-129 (0x81)
Формат : AC-3
Формат/Информация : Audio Coding 3
Режим смешивания : DVD-Video
Продолжительность : 18 м. 30 с.
Вид битрейта : Постоянный
Битрейт : 192 Кбит/сек
Каналы : 1 канал
Расположение каналов : Front: C
Частота : 48,0 КГц
Частота кадров : 31,250 кадров/сек (1536 SPF)
Битовая глубина : 16 бит
Метод сжатия : С потерями
Размер потока : 25,4 Мбайт (2%)
ServiceKind/String : Complete Main
Аудио #3
Идентификатор : 189 (0xBD)-130 (0x82)
Формат : AC-3
Формат/Информация : Audio Coding 3
Режим смешивания : DVD-Video
Продолжительность : 18 м. 30 с.
Вид битрейта : Постоянный
Битрейт : 192 Кбит/сек
Каналы : 1 канал
Расположение каналов : Front: C
Частота : 48,0 КГц
Частота кадров : 31,250 кадров/сек (1536 SPF)
Битовая глубина : 16 бит
Метод сжатия : С потерями
Размер потока : 25,4 Мбайт (2%)
ServiceKind/String : Complete Main
Аудио #4
Идентификатор : 189 (0xBD)-131 (0x83)
Формат : AC-3
Формат/Информация : Audio Coding 3
Режим смешивания : DVD-Video
Продолжительность : 18 м. 30 с.
Вид битрейта : Постоянный
Битрейт : 384 Кбит/сек
Каналы : 1 канал
Расположение каналов : Front: C
Частота : 48,0 КГц
Частота кадров : 31,250 кадров/сек (1536 SPF)
Битовая глубина : 16 бит
Метод сжатия : С потерями
Размер потока : 50,8 Мбайт (5%)
ServiceKind/String : Complete Main
Текст #1
Идентификатор : 189 (0xBD)-32 (0x20)
Формат : RLE
Формат/Информация : Run-length encoding
Режим смешивания : DVD-Video
Текст #2
Идентификатор : 189 (0xBD)-33 (0x21)
Формат : RLE
Формат/Информация : Run-length encoding
Режим смешивания : DVD-Video

Mediainfo Диск 2

Общее
Полное имя : F:\Beyond the Valley of the Dolls DVD-9_Custom+DVD-9_Criterion#836\диск 2\VIDEO_TS\VTS_02_1.VOB
Формат : MPEG-PS
Размер файла : 1024 Мбайт
Продолжительность : 24 м. 51 с.
Режим общего битрейта : Переменный
Общий поток : 5758 Кбит/сек
Видео
Идентификатор : 224 (0xE0)
Формат : MPEG Video
Версия формата : Version 2
Профиль формата : Main@Main
Настройки формата : CustomMatrix / BVOP
Параметр BVOP формата : Да
Параметр матрицы формата : Выборочная
Параметр GOP формата : Variable
Структура изображения : Frame
Продолжительность : 24 м. 51 с.
Вид битрейта : Переменный
Битрейт : 5452 Кбит/сек
Максимальный битрейт : 9000 Кбит/сек
Ширина : 720 пикселей
Высота : 480 пикселей
Соотношение сторон : 4:3
Частота кадров : 29,970 (30000/1001) кадров/сек
Стандарт вещания : NTSC
Цветовое пространство : YUV
Субдискретизация насыщенности : 4:2:0
Битовая глубина : 8 бит
Тип развёртки : Чересстрочная
Порядок развёртки : Верхнее поле первое
Метод сжатия : С потерями
Бит/(Пиксели*Кадры) : 0.526
Временной код первого кадра : 01:00:00:00
Оригинал временного кода : Group of pictures header
Размер потока : 969 Мбайт (95%)
Аудио
Идентификатор : 189 (0xBD)-128 (0x80)
Формат : AC-3
Формат/Информация : Audio Coding 3
Режим смешивания : DVD-Video
Продолжительность : 24 м. 51 с.
Вид битрейта : Постоянный
Битрейт : 192 Кбит/сек
Каналы : 2 канала
Расположение каналов : Front: L R
Частота : 48,0 КГц
Частота кадров : 31,250 кадров/сек (1536 SPF)
Битовая глубина : 16 бит
Метод сжатия : С потерями
Размер потока : 34,1 Мбайт (3%)
ServiceKind/String : Complete Main

Скриншоты меню Диск 1

Скриншоты фильма Диск 1

Скриншоты доп. материалов Диск 1



Скриншоты меню Диск 2

Скриншоты доп. материалов Диск 2




Полиграфия


Релиз: Уважаемые пользователи!Найдите пару минут поблагодарить релизера и высказаться в топике раздачи.Ваше мнение - бальзам для раздающего и пища для ума остальным пользователям.Мои раздачи